<?xml version="1.0" standalone="no"?>
<!DOCTYPE svg PUBLIC "-//W3C//DTD SVG 1.1//EN" "http://www.w3.org/Graphics/SVG/1.1/DTD/svg11.dtd">
<svg xmlns="http://www.w3.org/2000/svg">
<metadata>Generated by Fontastic.me</metadata>
<defs>
<font id="safiradmin" horiz-adv-x="512">
<font-face font-family="safiradmin" units-per-em="512" ascent="480" descent="-32"/>
<missing-glyph horiz-adv-x="512" />

<glyph glyph-name="safirtema" unicode="&#57344;" d="M285 512l2 0 0-1 1 0 0-1 2-1 0-1 3-3 0-1 1-1 0-1c1-1 2-4 2-6l0-1-1 0 0-1-1-1 0-1-1-1 0-1-1 0c0 0 0 0 0-1l-4-4 0-1-1 0 0-1-1 0 0-1-1-1c0 0 0 0 0-1l-1 0 0-1-1 0 0-1-3-3 0-1-1 0 0-2-3-3 0-1-1 0 0-1-1 0 0-1-3-3 0-1-1 0 0-1-4-4 0-1-1 0c0-1 0-1 0-1l0-1-3-3 0-1-1 0 0-1-1 0 0-1-1-1c0-1-1-1-1-1l-1-1 0-1-1 0c0-1 0-1 0-1l0-1-1 0c0-1 0-1 0-1l-3-3 0-1-1 0 0-1-1 0 0-1-1-1c0-1 0-1-1-1l0-1-2-1 0-1c0-1-1-1-1-1l0-1-3-3 0-1-1 0 0-2-1 0 0-1-2-2c-11-15-23-30-34-46l-1 0 0-1c0 0-1 0-1 0l0-1-1-1c0 0 0-1-1-1l-1-1 0-2-1 0-1-1 0-1c0 0 0 0-1 0l0-1-1 0 0-2-1-1-1 0 0-1-1 0 0-1-1-1 0-1-2-2 0-1-1 0 0-2-1 0 0-1-1 0 0-1-1 0 0-1c0 0 0 0-1 0l0-2-1-1c0 0 0 0-1 0l0-1-1 0 0-1-1-1 0-1-1-1c0 0-1-1-1-1l-1-1 0-1-1-1c0-1-1-1-1-1l2-2 0-1 1-1 2-1 0-1 1 0 0-1 2-2 0-1 2-2 0-1 1-1 2-1 0-1 1 0 0-1 1-1c0 0 0-1 0-1l1 0 0-1 2-2 0-1 1 0 0-1 2-1 0-1 2-2 0-1 1 0 0-1 2-2 0-1 2-1 1-1 0-1 2-2 0-1 2-2 0-1 2-1 1-1 0-1 2-2 0-1 2-1 1-1 0-1 2-2 0-1 2-1c0-1 1-1 1-1l0-1 2-2 0-1 2-1 1-1 0-1 1-1 0-1 1 0 0-1c1 0 1-1 2-1l0-1 1 0 0-1 1-1 0-1 1 0 0-1 2-1 0-1 2-2 0-1 1 0 0-1 1 0 1-2 1-1 0-1 2-1c0-1 0-1 1-1l0-1 1 0c0 0 0-1 0-1l0-1c1 0 1 0 2-1l0-1 1 0 0-1 4-4 0-1 2-1 0-1 1 0 0-1 1-1 0-1 2-1 1-1 0-1 1-1 0-1c1 0 1 0 2-1 0-1 1-1 1-2 1-1 1-1 2-1l0-1 1-1 0-1 1 0 1-1 0-1 1-1 2-1 0-1 1-1 0-1 2-1 0-1 3-3c0 0 0-1 1-1l0-1 2-1 0-1 1-1 1 0 0-1 1-1 0-1 1 0 0-1 1 0 0-1 1-1 0-1 2-1 0-1 2-1 0-1 2-1 0-1 5-5c0 0 0-1 1-1l0-1 2-1 0-1c0-1 1-1 1-1l0-2c0-1 0-3 0-4l-1 0 0-2-1 0c0-1 0-1 0-1l0-1-1 0c0-1 0-1 0-1l0-1c-1 0-1 0-1-1l0-1-1 0c-1-1-1-3-4-3 0 1 0 0-1 1l-2 2-1 0 0 1-1 0-2 2-1 0 0 1-1 0c0 0 0 0 0 1l-1 0c0 0-1 1-1 1l-1 1-1 0 0 1-1 0-3 3c-1 0-1 0-1 1l-1 0c0 0 0 0 0 1l-2 0-1 2-2 0 0 1-1 0c0 1 0 1 0 1l-1 0-2 2-1 0 0 1-1 0 0 1-1 0 0 1-2 0c0 1-1 1-1 2l-2 0c0 1 0 1 0 1l-1 0 0 1-1 0 0 1-1 0-2 2-1 0c0 0 0 1 0 1l-1 0c0 0 0 0 0 1l-1 0c0 0 0 0 0 1l-2 0-2 2c-1 0-1 1-1 1-1 0-1 1-1 1l-1 0 0 1-1 0-2 2-1 0-1 1-1 0 0 1-1 0 0 1-1 0 0 1-1 0-2 2-1 0c0 0 0 0 0 1l-1 0 0 1-2 0c0 1 0 1 0 1l-1 0-1 1c0 0-1 1-1 1l-1 1c-1 0-1 0-1 1l-2 0c0 1 0 1 0 1l-1 0-3 3-1 0c0 0 0 1 0 1l-1 0 0 1-1 0 0 1-1 0-1 1-1 0-3 3-1 0 0 1-1 0 0 1-1 0 0 1-1 0-1 1-1 0-1 1-1 0 0 1-1 0 0 1-1 0-3 3-2 0 0 1-1 0 0 1-1 0 0 1-1 0-2 2-1 0c0 0 0 1 0 1l-1 0 0 1-1 0 0 1-2 0-2 2c0 0 0 0-1 1l-1 1-1 0 0 1-1 0-1 1c0 0-1 0-1 1l-1 0-2 2-1 0 0 1-1 0 0 1-1 0-2 2c0 0-1 0-1 1l-1 0 0 1-2 0 0 1-1 0-4 4-1 0 0 1-1 0 0 1-2 0-1 1c0 0-1 1-1 1l-1 1-1 0c0 0 0 1 0 1l-1 0-4 4-1 0c0 0 0 0 0 1l-1 0-1 1-1 0-1 1c-1 1-1 1-1 1l-1 0 0 1-1 0 0 1-1 0-2 2-1 0 0 1-1 0c0 0 0 0 0 1l-1 0 0 1-1 0-2 2-2 0c0 1 0 1-1 2l-1 0-1 1c-1 1-1 1-1 1l-1 0 0 1-1 0-1 1c0 1-1 1-1 1l-1 1-1 0c0 1 0 1 0 1l-1 0c0 1-1 1-1 1l-1 1-1 0 0 1-1 0-2 2-1 0 0 1-1 0-2 2-1 0 0 1-1 0 0 1-1 0-1 1-1 2-1 0-2 2-1 0-2 2-1 0 0 1-2 1c-1 2-1 4-2 5 0 2 0 4 0 6l0 1 1 0 0 1 1 2 0 1 1 0 0 1 1 0 0 1 4 3c2 3 4 5 7 7l6 6 1 0c1 1 1 2 2 3l1 0 2 2c0 0 0 1 1 1l3 3 3 2c1 1 2 2 2 3l1 0 2 3 1 0 2 2 1 0 2 3 1 0 7 7 1 0 2 3 1 0 4 4 1 0 2 3 1 0 0 1 2 1 2 2 1 0 2 3 2 2 1 0 2 2 1 0c0 1 1 2 2 2 1 1 1 2 2 2l2 3 1 0 4 4 1 0 2 3 1 0 4 4 1 0 2 2 2 3 1 0 1 2 1 0 2 2 1 0 4 4 1 0 1 2 1 0 1 1 0 1 1 0 2 2c4 3 7 7 11 10l2 2 1 0 6 6 1 0 2 3 2 2 1 0 2 2 1 0 2 3 2 1 2 3c4 3 7 6 11 9l2 2 1 0 2 3 1 0 0 1 2 1 2 2 1 0 2 3 3 2 5 5 1 0 9 9 1 0z m-66-166c1 0 2 0 3-1 0-1 0-1 0-1l1 0 0-1 1 0 2-2 1 0 0-1 1 0 3-3 1 0 0-1 1 0 0-1 1 0c0 0 1 0 1-1l1-1 1 0 0-1 1 0 2-2 1 0c1-1 1-1 1-1l1 0 0-1 1 0 4-4 1 0 0-1 1 0 0-1 1 0 1-1 1 0 1-2 2 0 0-1 1 0 4-4 1 0 0-1 1 0 0-1 2 0 3-3 1 0 0-1 1 0 1-1c0 0 1-1 1-1l1-1c1 0 1 0 1-1l2 0c0-1 0-1 0-1l1 0 0-1 1 0c0 0 0-1 1-1l1-1c0 0 1 0 1-1 1 0 1 0 1-1l1 0 0-1 2 0 4-4 1 0 0-1 1 0 0-1 2 0 2-2 1 0c0-1 0-1 0-1l1 0 0-1 1 0c0 0 0-1 0-1l1 0c0 0 0 0 0-1l1 0c0 0 0 0 1-1l1-1c1 0 1 0 1 0l1-1 1 0c0 0 0-1 0-1l1 0 0-1 1 0c0 0 0 0 0-1l1 0 1-1c0 0 1 0 1 0l1-2 2 0 0-1 1 0 1-1 0-1 1 0 3-3 2 0 0-1 1 0 0-1 1 0 1-1c0 0 1-1 1-1l1 0 0-1 1 0c0 0 0-1 0-1l1 0 0-1 1 0c0 0 0 0 1 0l1-1c0-1 1-1 1-1l1-1 1 0 0-1 1 0 0-1 1 0 3-3 2 0 0-1 1 0c0 0 0-1 0-1l1 0 0-1 1 0 2-2 1 0 1-2 2 0 3-3c0 0 1 0 1-1l1-1 1 0 0-1 1 0c0 0 0 0 1-1l1-1 1 0 1-1 1 0c0-1 0-1 0-1l1 0 0-1 1 0 3-3 1 0 1-1 1 0c0-1 0-1 1-2l1 0 2-2 1 0 0-1 1 0 4-4 1 0 0-1 1 0 1-1c8-6 16-12 24-18l2-2 1 0 0-1 1 0 2-2 1 0 1-2c0 0 1 0 1-1l1 0c0 0 0 0 0-1l1 0c0 0 1-1 1-1 1 0 1-1 1-1l1 0 2-2c1-2 2-4 2-5 0-2 0-4 0-6l0-2-1 0 0-2-1 0 0-2-1 0 0-1-1 0-1-2-1 0c-1-1-3-3-4-4l-1 0-1-1-2-3-4-3-6-6-1 0c0-1-1-1-2-2l0-1-1 0-2-3-1 0c-1-1-2-1-2-2l-1 0-2-3-1 0-2-2-1 0c0-1 0-1 0-2l-2 0c0-1 0-1 0-1l-3-3-1 0-2-2-2-3-1 0-2-2-1 0-2-3-3-2c0 0-1-1-1-1l-1-1-1 0-2-3-2-2-1 0c0-1-1-1-2-2-4-3-7-7-11-9l0-1-2-1-2-3-1 0-2-2c-4-3-7-6-10-9l-2-2-1 0-2-3-1 0-1-1 0-1-1 0-4-4c-4-3-7-6-10-8l-2-3-1 0-2-2-1 0-2-2-2-3-1 0-4-4-1 0-2-2c-1-1-1-2-2-2l-1 0-2-3-2-2-1 0c0-1-1-1-2-2l-2-2-1 0-2-2c-1-1-1-2-2-3l-1 0-4-4-1 0c0-1-1-2-2-2-1-1-1-1-1-2l-1 0 0-1-1 0-2-2-1 0-2-3c-4-3-7-6-11-9l-2-3-1 0-2-2-1 0-2-3-1 0-2-3-1 0c-2-2-3-4-6-4l-1 0-1 1c-3 4-6 7-8 12 1 2 1 3 1 4l0 1 1 1 0 1 2 1 0 2 2 1c0 0 0 1 0 1l2 2 0 1 1 0 0 1 2 2c0 0 0 1 0 1l1 0 0 1 1 0 0 1 3 3 0 1 1 0 0 1c0 0 0 0 1 0l0 1 2 2 0 1 1 0 0 2 1 0 0 1 3 3c0 0 0 0 0 1l1 0 0 1 1 1c0 0 1 1 1 1l2 2 0 1 1 0 0 1 1 1 0 1 2 2 0 1 1 0 0 1 1 0 0 1 1 0 0 1 2 2 0 1c0 0 1 0 1 0l0 1 1 0 0 1c0 0 0 0 1 1l0 1 2 2 0 1 1 0 0 1 5 5 0 1 1 0c0 1 0 1 0 1l0 1 3 3 0 1 1 0 0 1c1 0 1 1 1 1l1 0 0 1 1 1c0 0 0 0 0 1l1 0c11 16 24 32 35 48l3 3c0 1 0 1 1 1l0 1 1 1 0 1c0 0 1 0 1 0l0 1 1 0 0 1 1 0 0 2 1 0 0 1c0 0 1 0 1 1l2 2 0 1 2 2 0 1 1 0 0 1c0 0 0 0 1 1l0 1 1 0 0 1 1 0 0 1 1 0 0 1c0 0 0 0 1 1l0 1 3 3 0 1c1 0 1 1 1 1l1 1 0 1 1 1 1 0c0 1 0 1 0 1l-2 2 0 1-2 2 0 1-1 1-2 1 0 1-1 0 0 1-2 2 0 1-2 2 0 1-1 0 0 1-2 1-1 1 0 1-2 2 0 1-1 1c-1 0-1 1-2 1l0 1-2 2 0 1-1 0 0 1-2 2 0 1-1 0 0 1-2 1 0 1-2 2 0 1-2 2 0 1-2 1-1 1 0 1-2 2 0 1-1 1-2 1 0 1-1 1c0 1-1 1-1 1l0 1-1 1c-1 1-1 1-2 1l0 1-2 2 0 1-1 1-2 1 0 1-1 1 0 1-1 0 0 1-2 1 0 1-2 2 0 1-1 0 0 1-2 1 0 1-2 2 0 1-1 1c-1 1-1 1-2 2 0 1-1 1-1 1l0 1-1 1c-1 1-1 1-2 1l0 1-1 1 0 1-2 1-1 1 0 1-2 2 0 1-2 1 0 1-1 1 0 1-1 0 0 1-2 1 0 1-4 4 0 1-2 1 0 1-2 2c-3 4-7 8-9 12l-1 0-4 4 0 1-2 1 0 1-1 1c-5 6-10 11-14 17l-2 1 0 1-1 0 0 1-2 1 0 2-1 0 0 5 1 0 0 2c0 0 0 1 0 1l1 0c0 1 0 1 0 1l0 1 1 0c0 1 0 1 0 1l1 1 0 1 1 1 0 1 1 0 0 1z"/>
<glyph glyph-name="info" unicode="&#57345;" d="M256 513c141 0 256-115 256-256 0-141-115-256-256-256-141 0-256 115-256 256 0 141 115 256 256 256z m53-397l5 18c-3-1-6-2-11-4-5-1-10-2-14-2-8 0-14 2-18 5-3 2-5 8-5 15 0 3 1 8 2 14 1 6 2 11 3 16l17 58c1 5 2 11 3 18 1 6 1 10 1 13 0 12-4 22-13 30-9 7-21 11-37 11-8 0-18-1-28-5-10-3-20-6-31-11l-4-18c3 1 7 3 11 4 5 1 9 2 14 2 8 0 14-1 17-4 3-3 5-8 5-16 0-4-1-9-2-14-1-5-2-10-3-15l-17-59c-1-6-2-11-3-16-1-5-1-10-1-14 0-12 4-22 13-30 9-8 21-12 37-12 11 0 20 2 28 4 8 3 18 7 31 12z m-3 236c8 7 12 16 12 26 0 10-4 19-12 26-7 7-16 11-27 11-11 0-20-4-28-11-8-7-12-16-12-26 0-10 4-19 12-26 8-7 17-11 28-11 11 0 20 4 27 11z"/>
<glyph glyph-name="question1" unicode="&#57346;" d="M477 386c-23 39-54 70-93 93-39 23-82 34-128 34-47 0-89-11-129-34-39-23-70-54-93-93-23-40-34-82-34-129 0-46 11-89 34-128 23-39 54-70 93-93 40-23 82-34 129-34 46 0 89 11 128 34 39 23 70 54 93 93 23 39 34 82 34 128 0 47-11 89-34 129z m-179-289c0-3-1-5-3-7-2-2-4-3-7-3l-64 0c-3 0-6 1-8 3-2 2-3 4-3 7l0 64c0 3 1 6 3 8 2 2 5 3 8 3l64 0c3 0 5-1 7-3 2-2 3-5 3-8z m81 197c-2-8-5-15-9-20-3-5-8-10-15-16-6-5-11-9-15-12-4-2-9-5-16-9-8-4-14-10-18-17-5-6-8-12-8-16 0-3-1-6-3-8-2-2-4-3-7-3l-64 0c-3 0-6 1-8 3-2 2-3 5-3 8l0 12c0 15 6 29 18 42 11 13 24 22 38 29 11 4 18 9 23 15 4 5 6 11 6 20 0 7-4 14-12 20-8 5-18 8-29 8-11 0-21-2-28-8-8-5-17-15-29-30-2-3-5-4-8-4-3 0-5 0-7 2l-43 33c-6 4-6 9-3 14 28 47 69 71 123 71 20 0 39-5 57-14 18-9 34-22 46-39 12-16 19-34 19-54 0-10-2-19-5-27z"/>
<glyph glyph-name="calendar" unicode="&#57347;" d="M187 230c0 7-6 12-12 12l-41 0c-6 0-11-5-11-12l0-40c0-7 5-12 11-12l41 0c6 0 12 5 12 12z m101 0c0 7-5 12-12 12l-40 0c-7 0-12-5-12-12l0-40c0-7 5-12 12-12l40 0c7 0 12 5 12 12z m101 0c0 7-5 12-11 12l-41 0c-6 0-11-5-11-12l0-40c0-7 5-12 11-12l41 0c6 0 11 5 11 12z m-202-101c0 6-6 12-12 12l-41 0c-6 0-11-6-11-12l0-41c0-6 5-11 11-11l41 0c6 0 12 5 12 11z m101 0c0 6-5 12-12 12l-40 0c-7 0-12-6-12-12l0-41c0-6 5-11 12-11l40 0c7 0 12 5 12 11z m101 0c0 6-5 12-11 12l-41 0c-6 0-11-6-11-12l0-41c0-6 5-11 11-11l41 0c6 0 11 5 11 11z m73 327l0-62c0-28-23-51-51-51l-32 0c-28 0-51 23-51 51l0 62-144 0 0-62c0-28-23-51-51-51l-32 0c-28 0-51 23-51 51l0 62c-24-1-44-21-44-46l0-363c0-25 20-46 46-46l409 0c25 0 45 21 45 46l0 363c0 25-20 45-44 46z m-15-386c0-11-9-20-20-20l-343 0c-11 0-20 9-20 20l0 187c0 11 9 20 20 20l343 0c11 0 20-9 20-20z m-346 307l32 0c9 0 17 7 17 17l0 102c0 9-8 17-17 17l-32 0c-10 0-18-8-18-17l0-102c0-10 8-17 18-17z m278 0l31 0c10 0 18 7 18 17l0 102c0 9-8 17-18 17l-31 0c-10 0-18-8-18-17l0-102c0-10 8-17 18-17z"/>
<glyph glyph-name="whatsapp" unicode="&#57348;" d="M507 266c0-136-112-246-249-246-44 0-85 11-120 30l-138-44 45 133c-23 37-36 81-36 127 0 137 112 247 249 247 137 0 249-110 249-247z m-249 208c-115 0-209-93-209-208 0-45 15-87 40-121l-26-77 80 25c33-22 72-34 115-34 115 0 209 93 209 207 0 115-94 208-209 208z m125-265c-1 3-5 4-11 7-6 4-36 18-42 20-6 2-10 3-14-3-4-6-15-20-19-24-4-4-7-4-13-1-6 3-26 9-49 30-18 16-31 36-34 42-4 6 0 9 3 12 2 3 6 7 9 11 3 3 4 6 6 10 2 4 1 7-1 10-1 3-13 33-18 45-6 12-11 10-14 10-4 0-8 1-12 1-4 0-11-2-16-8-6-6-21-20-21-50 0-30 21-59 24-63 4-4 43-67 105-91 62-24 62-16 73-15 11 1 36 14 41 29 5 14 5 26 3 28z"/>
<glyph glyph-name="share1" unicode="&#57349;" d="M408 175c-23 0-45-9-61-26-5-4-9-9-12-15l-150 91c4 10 6 21 6 32 0 12-2 23-6 32l150 91c15-24 42-41 73-41 48 0 87 39 87 87 0 48-39 87-87 87-48 0-87-39-87-87 0-11 2-21 6-31l-150-90c-16 23-43 39-73 39-48 0-87-39-87-87 0-47 39-86 87-86 30 0 57 15 73 39l150-91c-4-10-6-20-6-31 0-23 9-45 26-62 16-16 38-25 61-25 23 0 45 9 61 25 17 17 26 39 26 62 0 23-9 45-26 61-16 17-38 26-61 26z"/>
<glyph glyph-name="footer" unicode="&#57350;" d="M0 513l0-371 512 0 0 371z m481-340l-450 0 0 309 450 0z m-481-74l512 0 0-98-512 0z"/>
<glyph glyph-name="code" unicode="&#57351;" d="M507 270l-119 126c-7 7-19 8-27 0-7-7-8-19-1-27l106-112-106-112c-7-8-6-20 1-27 4-4 9-6 13-6 6 0 11 2 14 6l119 126c7 7 7 19 0 26z m-355-125l-106 112 106 112c7 8 6 20-1 27-8 8-20 7-27 0l-119-126c-7-7-7-19 0-26l119-126c3-4 9-6 14-6 4 0 9 2 13 6 8 7 8 19 1 27z m135 315c-10 2-20-5-22-16l-56-368c-2-11 5-21 16-22 1 0 2-1 3-1 9 0 17 7 19 17l56 368c2 11-5 21-16 22z"/>
<glyph glyph-name="user" unicode="&#57352;" d="M254 237c1 0 1 0 2 0 1 0 1 0 2 0 31 1 56 12 74 32 41 46 34 125 34 133-3 56-30 83-52 96-16 9-35 15-57 15l-2 0c-11 0-35-2-57-15-22-12-49-39-52-96-1-8-7-87 34-133 18-20 43-31 74-32z m-79 162c0 1 0 1 0 1 3 76 57 84 80 84l1 0c29 0 78-12 81-84 0 0 0-1 0-1 0-1 8-73-26-111-13-15-31-22-55-22 0 0 0 0-1 0-23 0-41 7-54 22-34 38-27 111-26 111z m299-293c0 0 0 0 0 1 0 0 0 1 0 2-1 21-2 70-48 86-1 0-1 0-1 0-48 13-88 40-88 40-7 5-16 3-20-3-5-7-3-15 3-20 2-1 44-31 97-44 25-9 27-35 28-60 0-1 0-1 0-2 0-10 0-25-2-33-17-10-85-43-187-43-102 0-170 33-187 43-2 9-2 23-2 33 0 1 0 2 0 3 1 24 3 50 28 59 53 13 95 43 97 44 6 5 8 14 3 20-4 6-13 8-20 4 0-1-39-28-88-41 0 0 0 0-1 0-46-16-47-65-48-86 0-1 0-1 0-2 0 0 0-1 0-1 0-5 0-33 6-48 1-2 3-5 5-6 3-2 80-51 207-51 128 0 204 49 207 51 3 1 5 4 6 6 5 14 5 43 5 48z"/>
<glyph glyph-name="money" unicode="&#57353;" d="M256 196c-8 0-15 7-15 15 0 6 4 11 9 14 7 3 15 0 22-7 6-6 16-5 21 0 6 6 6 16 0 22-7 6-14 11-22 14l0 17c0 8-7 15-15 15-8 0-15-7-15-15l0-18c-1 0-2 0-3-1-16-7-27-23-27-41 0-25 20-45 45-45 8 0 15-7 15-15 0-6-4-12-10-14-8-3-17 1-24 10-6 7-15 8-22 2-6-5-7-15-1-21 8-10 17-16 27-20l0-17c0-8 7-15 15-15 8 0 15 7 15 15l0 18c18 6 30 23 30 42 0 25-20 45-45 45z m139 92c-18 22-38 39-61 52 4 4 7 9 9 15 7 22-4 49-31 57l38 67c5 8 1 19-8 22-28 8-57 12-86 12-29 0-58-4-86-12-9-3-13-14-8-22l38-67c-27-8-38-35-31-57 2-6 5-11 9-15-23-13-43-30-61-52-36-44-56-99-56-152 0-109 87-135 195-135 108 0 195 26 195 135 0 53-20 108-56 152z m-198 189c20 4 39 6 59 6 20 0 39-2 59-6l-34-58c-16 3-34 3-50 0z m10-94c26 9 53 10 79 5 7-1 13-3 19-5 8-2 12-11 9-19-2-6-7-9-12-10-15 5-31 7-46 7-15 0-31-2-46-7-5 1-10 5-12 10-3 8 1 17 9 19z m49-352c-117 0-165 30-165 105 0 45 18 95 49 133 33 40 74 62 116 62 46 0 87-26 116-62 31-38 49-88 49-133 0-75-48-105-165-105z"/>
<glyph glyph-name="hot" unicode="&#57354;" d="M371 360l-32-24c3-5 13-18 13-27 0-19-15-35-35-35-19 0-34 16-34 35 0 7 2 15 6 23 26 61 12 131-37 173-1 1-9 8-9 8l-26 0-2-18c-3-39-35-80-69-124-42-54-85-110-85-175 0-108 87-195 195-195 108 0 195 87 195 195 0 56-40 112-80 164z m-115-318c-21 0-38 17-38 38 0 13 13 30 24 46 6 7 11 15 16 23 20-21 36-48 36-69 0-21-17-38-38-38z m76 19c1 6 2 12 2 19 0 44-37 94-72 118l-6 4-27 0 0-20c0-7-11-22-19-33-15-20-32-43-32-69 0-7 1-13 2-19-47 26-79 77-79 135 0 51 39 102 77 151 27 35 54 69 68 105 18-30 21-69 6-104-6-13-9-27-9-39 0-41 33-75 74-75 29 0 54 16 66 40 17-27 28-53 28-78 0-58-32-109-79-135z"/>
<glyph glyph-name="clock" unicode="&#57355;" d="M256 513c-141 0-256-115-256-256 0-141 115-256 256-256 141 0 256 115 256 256 0 141-115 256-256 256z m108-427l-11 19c-2 2-4 4-7 4-1 0-2-1-3-1-2-1-3-3-3-5-1-2-1-4 0-5l11-19c-24-13-52-22-82-24l0 27c0 8-6 14-13 14-7 0-13-6-13-14l0-27c-29 2-57 10-81 23l11 19c1 2 1 4 0 6 0 2-1 3-3 4-1 1-2 1-3 1-3 0-5-1-7-4l-11-19c-24 16-45 36-61 60l23 13c7 4 9 12 5 18-3 7-12 9-18 5l-23-13c-13 25-20 52-21 81l22 0c2 0 4 1 5 2 1 2 2 4 2 5 0 4-3 8-7 8l-22 0c1 29 8 57 21 82l23-13c2-1 4-2 7-2 4 0 9 2 11 7 4 6 2 14-5 18l-23 13c16 24 36 44 60 59l11-19c1-1 2-2 3-3 2-1 5-1 7 0 2 1 3 3 3 5 1 2 1 4 0 5l-11 19c24 13 52 22 82 24l0-27c0-8 6-14 13-14 7 0 13 6 13 14l0 27c29-2 57-10 81-23l-11-19c-2-4 0-8 3-10 1-1 2-1 3-1 3 0 5 1 7 4l11 19c24-16 45-36 61-60l-23-13c-7-4-9-12-5-18 2-5 7-7 11-7 3 0 5 1 7 2l23 13c13-25 20-52 21-81l-22 0c-2 0-4-1-5-2-1-2-2-4-2-5 0-3 1-5 3-7 2 0 3-1 4-1l22 0c-1-29-8-57-21-82l-23 13c-6 4-15 2-18-5-4-6-2-14 5-18l23-13c-16-24-36-44-60-59z m-8 244l-87-48c-4 2-8 3-13 3-5 0-9-1-13-3l-87 48c-8 5-18 2-23-7-4-8-1-18 7-23l88-48c3-14 14-23 28-23 14 0 25 9 28 23l88 48c8 5 11 15 7 23-5 9-15 12-23 7z"/>
<glyph glyph-name="folder" unicode="&#57356;" d="M494 407c-11 12-26 18-42 18l-194 0c-5 0-10 3-13 7l-31 46-154 0c-33 0-60-27-60-60l0-322c0-33 27-60 60-60l392 0c33 0 60 27 60 60l0 269c0 16-6 31-18 42z m-454 11c0 11 9 20 20 20l133 0 19-28c1-2 2-4 3-5-1-2-2-3-3-5l-20-28-132 0c-7 0-14-1-20-3z m432-322c0-11-9-20-20-20l-392 0c-11 0-20 9-20 20l0 216c0 5 2 10 6 14 4 4 9 6 14 6l154 0 31 46c3 4 8 7 13 7l194 0c5 0 10-2 14-6 4-4 6-9 6-14z"/>
<glyph glyph-name="menu" unicode="&#57357;" d="M0 452l512 0 0-51-512 0z m0-339l512 0 0-51-512 0z m0 169l512 0 0-50-512 0z"/>
<glyph glyph-name="slider" unicode="&#57358;" d="M492 185l-30 0 0 236c0 11-9 20-20 20l-372 0c-11 0-20-9-20-20l0-236-30 0c-11 0-20-9-20-20l0-71c0-11 9-20 20-20l472 0c11 0 20 9 20 20l0 71c0 11-9 20-20 20z m-402 216l332 0 0-216-332 0z m382-287l-432 0 0 31 432 0z m-90 193c8-8 8-20 0-28l-35-35c-8-8-21-8-29 0-7 7-7 20 0 28l22 21-22 21c-7 8-7 21 0 28 8 8 21 8 29 0z m-188-35c7-8 7-21 0-28-8-8-21-8-29 0l-35 35c-8 8-8 20 0 28l35 35c8 8 21 8 29 0 7-7 7-20 0-28l-22-21z"/>
<glyph glyph-name="settings1" unicode="&#57359;" d="M501 301l-60 14c-4 11-8 21-13 31l31 51c3 6 2 13-2 18l-43 43c-5 4-12 5-18 2l-51-31c-10 5-20 9-31 13l-14 60c-2 6-8 11-15 11l-60 0c-7 0-13-5-15-11l-14-60c-11-4-21-8-31-13l-51 31c-6 3-13 2-18-2l-43-43c-4-5-5-12-2-18l31-51c-5-10-9-20-13-31l-58-14c-6-2-11-8-11-15l0-60c0-7 5-13 11-15l58-14c4-11 8-21 13-31l-31-51c-3-6-2-13 2-18l43-43c5-4 12-5 18-2l51 31c10-5 20-9 31-13l14-58c2-6 8-11 15-11l60 0c7 0 13 5 15 11l14 58c11 4 21 8 31 13l51-31c6-3 13-2 18 2l43 43c4 5 5 12 2 18l-31 51c5 10 9 20 13 31l60 14c6 2 11 8 11 15l0 60c0 7-5 13-11 15z m-19-63l-57-14c-5-1-9-5-11-11-4-14-9-27-16-39-3-5-3-11 0-16l29-48-26-26-48 29c-5 3-11 3-16 0-12-7-25-12-39-16-6-2-10-6-11-11l-14-55-36 0-14 55c-1 5-5 9-11 11-14 4-27 9-39 16-5 3-11 3-16 0l-48-29-26 26 29 48c3 5 3 11 0 16-7 12-12 25-16 39-2 6-6 10-11 11l-55 14 0 36 55 14c5 1 9 5 11 11 4 14 9 27 16 39 3 5 3 11 0 16l-29 48 26 26 48-29c5-3 11-3 16 0 12 7 25 12 39 16 6 2 10 6 11 11l14 57 36 0 14-57c1-5 5-9 11-11 14-4 27-9 39-16 5-3 11-3 16 0l48 29 26-26-29-48c-3-5-3-11 0-16 7-12 12-25 16-39 2-6 6-10 11-11l57-14z m-227 123c-58 0-105-47-105-105 0-58 47-105 105-105 58 0 105 47 105 105 0 58-47 105-105 105z m0-180c-41 0-75 34-75 75 0 41 34 75 75 75 41 0 75-34 75-75 0-41-34-75-75-75z"/>
<glyph glyph-name="settings2" unicode="&#57360;" d="M494 278l-87 0c-10 0-18-8-18-18 0-10 8-18 18-18l87 0c10 0 18 8 18 18 0 10-8 18-18 18z m-219 0l-257 0c-10 0-18-8-18-18 0-10 8-18 18-18l257 0c11 0 19 8 19 18 0 10-8 18-19 18z m66 66c-46 0-84-38-84-84 0-46 38-84 84-84 46 0 84 38 84 84 0 46-38 84-84 84z m0-131c-26 0-47 21-47 47 0 26 21 47 47 47 26 0 48-21 48-47 0-26-22-47-48-47z m-236-86l-87 0c-10 0-18-8-18-18 0-10 8-18 18-18l87 0c10 0 18 8 18 18 0 10-8 18-18 18z m389 0l-257 0c-11 0-19-8-19-18 0-10 8-18 19-18l257 0c10 0 18 8 18 18 0 10-8 18-18 18z m-323 66c-46 0-84-37-84-84 0-46 38-84 84-84 46 0 84 38 84 84 0 47-38 84-84 84z m0-131c-26 0-48 21-48 47 0 26 22 48 48 48 26 0 47-22 47-48 0-26-21-47-47-47z m-66 361l-87 0c-10 0-18-8-18-18 0-10 8-18 18-18l87 0c10 0 18 8 18 18 0 10-8 18-18 18z m389 0l-257 0c-11 0-19-8-19-18 0-10 8-18 19-18l257 0c10 0 18 8 18 18 0 10-8 18-18 18z m-323 66c-46 0-84-38-84-84 0-47 38-84 84-84 46 0 84 37 84 84 0 46-38 84-84 84z m0-132c-26 0-48 22-48 48 0 26 22 47 48 47 26 0 47-21 47-47 0-26-21-48-47-48z"/>
<glyph glyph-name="bucket" unicode="&#57361;" d="M488 273l-163 163 43 43c8 8 8 20 0 28-8 8-20 8-28 0l-242-241c-33-9-58-40-58-77 0-11 9-20 20-20 11 0 20 9 20 20 0 16 9 29 22 36l169-169c16-16 36-23 57-23 20 0 40 7 56 23l105 104c15 15 23 35 23 57 0 21-8 41-24 56z m-28-84l-104-105c-16-15-41-15-57 0l-145 145 222 0c11 0 20 9 20 20 0 11-9 20-20 20l-218 0 139 139 163-163c8-7 12-18 12-28 0-11-4-21-12-28z m-365-75c-10 15-20 27-20 28-4 4-10 7-16 7-6 0-12-3-15-7-1-1-11-13-21-28-21-31-23-46-23-54 0-33 27-59 59-59 33 0 59 26 59 59 0 8-2 23-23 54z m-36-73c-10 0-19 9-19 19 0 0 1 8 16 32 1 1 2 2 3 4 1-2 2-3 3-4 15-23 16-32 16-32 0-10-8-19-19-19z"/>
<glyph glyph-name="video" unicode="&#57362;" d="M340 267l-106 77c-4 3-9 4-13 1-5-2-7-6-7-11l0-155c0-4 2-9 7-11 2-1 4-1 6-1 2 0 5 0 7 2l106 77c4 3 6 7 6 11 0 4-2 8-6 10z m-84 246c-141 0-256-115-256-256 0-141 115-256 256-256 141 0 256 115 256 256 0 141-115 256-256 256z m0-469c-118 0-213 95-213 213 0 118 95 213 213 213 118 0 213-95 213-213 0-118-95-213-213-213z"/>
<glyph glyph-name="plus" unicode="&#57363;" d="M256 513c-141 0-256-115-256-256 0-141 115-256 256-256 141 0 256 115 256 256 0 141-115 256-256 256z m0-472c-119 0-216 97-216 216 0 119 97 216 216 216 119 0 216-97 216-216 0-119-97-216-216-216z m99 238l-79 0 0 79c0 11-9 20-20 20-11 0-20-9-20-20l0-79-79 0c-11 0-20-9-20-20 0-11 9-20 20-20l79 0 0-79c0-11 9-20 20-20 11 0 20 9 20 20l0 79 79 0c11 0 20 9 20 20 0 11-9 20-20 20z"/>
<glyph glyph-name="gallery" unicode="&#57364;" d="M464 513l-416 0c-27 0-48-21-48-48l0-416c0-27 21-48 48-48l416 0c27 0 48 21 48 48l0 416c0 27-21 48-48 48z m16-464c0-9-7-16-16-16l-416 0c-9 0-16 7-16 16l0 416c0 9 7 16 16 16l416 0c9 0 16-7 16-16z m-133 187c-6 7-16 7-22 0l-37-36-69 68c-6 6-16 6-22 0l-112-112c-6-6-6-16 0-22 3-3 7-5 11-5l320 0c9 0 16 7 16 16 0 4-2 8-5 11z m5 101c0-27-21-48-48-48-27 0-48 21-48 48 0 27 21 48 48 48 27 0 48-21 48-48z"/>
<glyph glyph-name="question2" unicode="&#57365;" d="M281 134c0-13-11-25-25-25-14 0-25 12-25 25 0 14 11 25 25 25 14 0 25-11 25-25z m-25 379c-141 0-256-114-256-256 0-141 114-256 256-256 141 0 256 114 256 256 0 141-114 256-256 256z m0-472c-119 0-216 97-216 216 0 119 97 216 216 216 119 0 216-97 216-216 0-119-97-216-216-216z m0 343c-44 0-80-35-80-80 0-11 9-20 20-20 11 0 20 9 20 20 0 23 18 40 40 40 22 0 40-17 40-40 0-22-18-40-40-40-11 0-20-8-20-20l0-50c0-11 9-20 20-20 11 0 20 9 20 20l0 33c34 9 60 40 60 77 0 45-36 80-80 80z"/>
<glyph glyph-name="star" unicode="&#57366;" d="M510 316c-3 12-15 20-31 23l-133 19-59 120c-7 15-19 23-31 23-13 0-24-8-31-23l-60-120-132-19c-16-3-28-11-32-23-4-12 1-25 13-37l96-93-23-132c-3-17 2-27 7-33 5-6 13-10 22-10 7 0 14 2 21 6l119 63 118-63c8-4 15-6 22-6 9 0 17 4 22 10 5 6 10 16 7 33l-23 132 96 93c12 12 16 25 12 37z m-33-15l-101-99c-4-4-6-9-5-13l24-140c1-4 1-7 0-8-1 0-3 1-7 3l-125 66c-2 1-5 1-7 1-2 0-5 0-7-1l-126-66c-3-2-6-3-7-3 0 1 0 4 1 8l24 140c0 4-1 9-5 13l-101 99c-3 3-4 5-5 6 1 0 3 1 7 2l141 20c4 1 9 4 11 8l63 128c1 3 3 5 4 6 1-1 2-3 4-6l63-128c2-4 6-7 11-8l140-20c5-1 7-2 8-2-1-1-2-3-5-6z"/>
<glyph glyph-name="email" unicode="&#57368;" d="M452 465l-392 0c-33 0-60-27-60-60l0-49 220-164c11-8 23-12 36-12 13 0 25 4 36 12l220 164 0 49c0 33-27 60-60 60z m20-89l-204-152c-7-5-17-5-24 0l-204 152 0 29c0 11 9 20 20 20l392 0c11 0 20-9 20-20z m0-100l40 30 0-197c0-33-27-60-60-60l-392 0c-33 0-60 27-60 60l0 197 40-30 0-167c0-11 9-20 20-20l392 0c11 0 20 9 20 20z"/>
<glyph glyph-name="share2" unicode="&#57369;" d="M396 194c-29 0-56-13-74-35l-115 66c3 10 5 21 5 32 0 11-2 22-5 32l115 66c18-22 45-35 74-35 54 0 97 43 97 96 0 54-43 97-97 97-53 0-96-43-96-97 0-11 2-22 5-32l-115-65c-18 21-44 35-74 35-54 0-97-44-97-97 0-53 43-97 97-97 30 0 56 14 74 35l115-65c-3-10-5-21-5-32 0-54 43-97 96-97 54 0 97 43 97 97 0 53-43 96-97 96z m0 285c35 0 63-28 63-63 0-34-28-62-63-62-34 0-62 28-62 62 0 35 28 63 62 63z m-280-285c-35 0-63 28-63 63 0 35 28 63 63 63 34 0 62-28 62-63 0-35-28-63-62-63z m280-159c-34 0-62 28-62 63 0 34 28 62 62 62 35 0 63-28 63-62 0-35-28-63-63-63z"/>
<glyph glyph-name="header" unicode="&#57370;" d="M512 1l0 371-512 0 0-371z m-481 340l450 0 0-309-450 0z m481 74l-512 0 0 98 512 0z"/>
<glyph glyph-name="home" unicode="&#57371;" d="M507 305l-243 178c-5 3-11 3-16 0l-243-178c-5-4-7-13-2-19 4-6 12-7 18-3l235 172 235-172c2-1 5-2 8-2 4 0 8 2 10 5 5 6 3 15-2 19z m-65-25c-7 0-13-6-13-13l0-212-106 0 0 116c0 37-30 67-67 67-37 0-67-30-67-67l0-116-106 0 0 212c0 7-6 13-13 13-8 0-14-6-14-13l0-225c0-7 6-13 14-13l133 0c7 0 13 5 13 12 0 0 0 1 0 1l0 129c0 22 18 40 40 40 22 0 40-18 40-40l0-129c0 0 0-1 0-1 0-7 6-12 13-12l133 0c8 0 14 6 14 13l0 225c0 7-6 13-14 13z"/>
<glyph glyph-name="post" unicode="&#57372;" d="M344 37c0-2-2-3-3-3l-301 0c-1 0-3 1-3 3l0 440c0 2 2 3 3 3l301 0c1 0 3-1 3-3l0-31 33 32c-1 19-17 35-36 35l-301 0c-20 0-36-16-36-36l0-440c0-20 16-36 36-36l301 0c20 0 36 16 36 36l0 155-33-33z m-282 90c0-9 7-17 16-17l58 0c-6 10-9 22-7 33l-51 0c-9 0-16-7-16-16z m85 99l-69 0c-9 0-16-7-16-17 0-9 7-16 16-16l61 0z m59 83l-128 0c-9 0-16-8-16-17 0-9 7-16 16-16l95 0z m83 82l-211 0c-9 0-16-7-16-16 0-9 7-17 16-17l178 0z m199 55c-27 27-71 27-97 0-16-15-196-195-204-204-3-2-4-5-5-8l-20-94c-1-5 0-11 4-15 4-4 10-6 15-5l94 21c4 0 6 2 9 4l204 204c26 27 26 70 0 97z m-289-288l9 40 31-31z m265 215l-192-193-51 51 193 192c14 14 38 14 52-1 12-14 12-36-2-49z"/>
<glyph glyph-name="rota" unicode="&#57373;" d="M512 461l-51 51-205-205-205 205-51-51 205-205-205-205 51-51 205 205 205-205 51 51-205 205z"/>
<glyph glyph-name="rota-1" unicode="&#57374;" d="M256 214l174 167c5 4 12 4 16 0l31-30c4-5 4-12 0-16l-213-204c-2-2-5-3-8-3-3 0-6 1-8 3l-213 204c-4 4-4 11 0 16l31 30c4 4 12 4 16 0z"/>
<glyph glyph-name="352153-swap-arrows-icon" unicode="&#57375;" d="M149 277l-85-85 85-85 0 64 150 0 0 42-150 0z m299 43l-85 85 0-64-150 0 0-42 150 0 0-64z"/>
<glyph glyph-name="safiradmin" unicode="&#57367;" d="M377 206l-54 54 41 40 32-32c6-6 15-10 24-10 10 0 19 4 25 10l57 57c13 14 13 36 0 49l-128 128c-13 13-35 13-49 0l-57-57c-13-13-13-36 0-49l32-32-40-41-54 54c11 37 1 77-27 104-28 29-69 38-107 25-5-1-9-5-10-9-1-5 0-10 3-14l41-54-23-23-54 41c-4 3-9 4-14 3-4-1-8-5-9-10-13-38-4-79 25-107 27-28 67-38 104-27l54-54-55-54c-3 3-6 4-10 4-4 0-8-1-11-4l-95-96c-12-11-18-26-18-42 0-16 6-31 18-42 11-12 27-18 42-18 15 0 31 6 42 18l96 95c6 6 6 15 0 21l54 55 54-54c-11-37-1-77 27-104 20-20 46-31 74-31 11 0 22 2 33 6 5 1 9 5 10 9 1 5 0 10-3 14l-41 54 23 23 54-41c4-3 9-4 14-3 4 1 8 5 9 10 13 38 4 79-25 107-27 28-67 38-104 27z m-89 214c0 1 0 3 2 4l56 57c1 1 3 1 4 1 1 0 2 0 3-1l128-128c1-1 1-2 1-3 0-1 0-3-1-4l-57-56c-1-2-3-2-4-2 0 0-2 0-3 2l-127 127c-2 1-2 3-2 3z m-138-86c-5 4-11 6-17 4-28-12-60-5-81 16-15 15-22 34-22 55l45-35c6-5 14-4 19 1l43 43c5 5 6 13 1 19l-35 45c21 0 40-7 55-22 21-21 28-53 16-81-2-6 0-12 4-17l60-60-28-28z m-69-295c-11-12-31-12-42 0-6 5-9 13-9 21 0 8 3 16 9 21l85 85 42-42z m74 138l166 166 22-22-166-166z m327-74l-45 35c-6 5-14 4-19-1l-43-43c-5-5-6-13-1-19l35-45c-21 0-40 7-55 22-21 21-28 53-16 81 2 6 0 12-4 17l-60 60 28 28 60-60c5-4 11-6 17-4 28 12 60 5 81-16 15-15 22-34 22-55z"/>
</font>
</defs>
</svg>
