<?xml version="1.0" standalone="no"?>
<!DOCTYPE svg PUBLIC "-//W3C//DTD SVG 1.1//EN" "http://www.w3.org/Graphics/SVG/1.1/DTD/svg11.dtd">
<svg xmlns="http://www.w3.org/2000/svg">
<metadata>Generated by Fontastic.me</metadata>
<defs>
<font id="anka" horiz-adv-x="512">
<font-face font-family="anka" units-per-em="512" ascent="480" descent="-32"/>
<missing-glyph horiz-adv-x="512" />

<glyph glyph-name="alt-n" unicode="&#57344;" d="M336 496c-85 0-176-28-176-80l0-64c0-9 7-16 16-16 9 0 16 7 16 16l0 17c34-22 90-33 144-33 54 0 110 11 144 33l0-17c0-16-39-41-113-47-9 0-16-8-15-17 1-8 8-15 16-15 0 0 1 0 1 0 42 4 84 15 111 32l0-17c0-14-29-33-83-43-8-1-14-10-13-18 2-8 8-14 16-14 1 0 2 1 3 1 32 5 58 15 77 27l0-17c0-14-29-33-83-43-8-1-14-10-13-18 2-8 8-14 16-14 1 0 2 1 3 1 32 5 58 15 77 27l0-17c0-14-29-33-83-43-8-1-14-10-13-18 2-8 8-14 16-14 1 0 2 1 3 1 32 5 58 15 77 27l0-17c0-16-39-41-113-47-9 0-16-8-15-17 1-8 8-15 16-15 0 0 1 0 1 0 71 6 143 33 143 79l0 320c0 52-91 80-176 80z m0-128c-88 0-144 28-144 48 0 20 56 48 144 48 88 0 144-28 144-48 0-20-56-48-144-48z m-160-64c-85 0-176-28-176-80l0-128c0-52 91-80 176-80 85 0 176 28 176 80l0 128c0 52-91 80-176 80z m144-208c0-20-56-48-144-48-88 0-144 28-144 48l0 17c34-22 90-33 144-33 54 0 110 11 144 33z m0 64c0-20-56-48-144-48-88 0-144 28-144 48l0 17c34-22 90-33 144-33 54 0 110 11 144 33z m-144 16c-88 0-144 28-144 48 0 20 56 48 144 48 88 0 144-28 144-48 0-20-56-48-144-48z"/>
<glyph glyph-name="bist" unicode="&#57345;" d="M501 0l-490 0c-6 0-11 5-11 11 0 6 5 10 11 10l490 0c6 0 11-4 11-10 0-6-5-11-11-11z m-362 0l-107 0c-6 0-11 5-11 11l0 117c0 12 10 21 22 21l85 0c12 0 21-9 21-21l0-117c0-6-4-11-10-11z m-96 21l85 0 0 107-85 0z m266-21l-106 0c-6 0-11 5-11 11l0 245c0 12 10 21 21 21l86 0c11 0 21-9 21-21l0-245c0-6-5-11-11-11z m-96 21l86 0 0 235-86 0z m267-21l-107 0c-6 0-10 5-10 11l0 373c0 12 9 21 21 21l85 0c12 0 22-9 22-21l0-373c0-6-5-11-11-11z m-96 21l85 0 0 363-85 0z m-331 256c-2 0-5 1-7 3-4 5-4 11 0 16l192 192c4 4 11 4 15 0 4-5 4-11 0-16l-192-192c-2-2-5-3-8-3z m192 107c-6 0-10 5-10 11l0 74-75 0c-6 0-11 5-11 11 0 6 5 11 11 11l85 0c6 0 11-5 11-11l0-85c0-6-5-11-11-11z"/>
<glyph glyph-name="dollar" unicode="&#57346;" d="M256 512c-141 0-256-115-256-256 0-141 115-256 256-256 141 0 256 115 256 256 0 141-115 256-256 256z m0-480c-124 0-224 100-224 224 0 124 100 224 224 224 124 0 224-100 224-224 0-124-100-224-224-224z m0 240c-26 0-48 15-48 32 0 17 22 32 48 32 15 0 28-5 37-13 7-5 17-5 23 2 6 6 5 16-1 22-12 10-27 17-43 20l0 17c0 9-7 16-16 16-9 0-16-7-16-16l0-17c-36-6-64-32-64-63 0-35 36-64 80-64 26 0 48-15 48-32 0-17-22-32-48-32-15 0-28 5-37 13-7 5-17 5-23-2-6-6-5-16 1-22 12-10 27-17 43-20l0-17c0-9 7-16 16-16 9 0 16 7 16 16l0 17c36 6 64 32 64 63 0 35-36 64-80 64z"/>
<glyph glyph-name="euro" unicode="&#57347;" d="M256 512c-141 0-256-115-256-256 0-141 115-256 256-256 141 0 256 115 256 256 0 141-115 256-256 256z m0-480c-124 0-224 100-224 224 0 124 100 224 224 224 124 0 224-100 224-224 0-124-100-224-224-224z m55 140c-12-8-25-12-39-12-29 0-55 19-69 48l53 0c9 0 16 7 16 16 0 9-7 16-16 16l-63 0c0 5-1 11-1 16 0 5 1 11 1 16l79 0c9 0 16 7 16 16 0 9-7 16-16 16l-69 0c14 29 40 48 69 48 14 0 27-4 39-12 7-5 17-3 22 4 5 7 3 17-4 22-17 12-37 18-57 18-47 0-87-33-104-80l-24 0c-9 0-16-7-16-16 0-9 7-16 16-16l17 0c0-5-1-11-1-16 0-5 1-11 1-16l-17 0c-9 0-16-7-16-16 0-9 7-16 16-16l24 0c17-47 57-80 104-80 20 0 40 6 57 18 7 5 9 15 4 22-5 7-15 9-22 4z"/>
<glyph glyph-name="search" unicode="&#57348;" d="M509 33l-149 149c28 35 45 79 45 127 0 112-91 203-202 203-112 0-203-91-203-203 0-111 91-202 203-202 48 0 92 17 127 45l149-149c4-4 11-4 15 0l15 15c4 4 4 11 0 15z m-306 116c-89 0-160 72-160 160 0 89 71 160 160 160 88 0 160-71 160-160 0-88-72-160-160-160z"/>
<glyph glyph-name="son-dakika" unicode="&#57349;" d="M437 437c-7 7-20 7-27 0l-58-58c-8-8-8-20 0-27 7-8 19-8 27 0l44 44c72-85 67-214-13-294-85-85-223-85-308 0-85 85-85 223 0 308 52 52 127 74 199 59 10-2 20 4 22 15 2 10-4 20-14 22-85 18-173-8-234-69-48-48-75-113-75-181 0-68 27-133 75-181 48-48 113-75 181-75 68 0 133 27 181 75 48 48 75 113 75 181 0 68-27 133-75 181z m-181-3c-11 0-19-8-19-19l0-151-76-76c-8-8-8-20 0-27 3-4 8-6 13-6 5 0 10 2 14 6l81 82c1 0 1 0 2 1 0 0 0 0 0 1 0 0 0 0 1 0 0 1 0 1 0 1 0 0 1 1 1 1 0 0 0 1 0 1 0 0 0 0 1 1 0 0 0 0 0 1l0 1c0 0 0 0 0 0 0 1 1 1 1 1 0 1 0 1 0 1 0 1 0 1 0 1 0 1 0 2 0 2l0 159c0 11-9 19-19 19z"/>
<glyph glyph-name="flaticon" unicode="&#57350;" d="M502 391c7-7 10-14 10-23 0-9-3-16-10-23l-224-223c-6-7-13-10-22-10-9 0-16 3-23 10l-223 223c-7 7-10 14-10 23 0 9 3 16 10 23 6 6 13 9 22 9l448 0c9 0 16-3 22-9z"/>
<glyph glyph-name="flaticon-1" unicode="&#57351;" d="M502 166c7-6 10-13 10-22 0-9-3-16-10-22-6-7-13-10-22-10l-448 0c-9 0-16 3-22 10-7 6-10 13-10 22 0 9 3 16 10 22l223 224c7 7 14 10 23 10 9 0 16-3 22-10z"/>
<glyph glyph-name="maya" unicode="&#57352;" d="M256 214l174 167c5 4 12 4 16 0l31-30c4-5 4-12 0-16l-213-204c-2-2-5-3-8-3-3 0-6 1-8 3l-213 204c-4 4-4 11 0 16l31 30c4 4 12 4 16 0z"/>
<glyph glyph-name="denge" unicode="&#57353;" d="M512 461l-51 51-205-205-205 205-51-51 205-205-205-205 51-51 205 205 205-205 51 51-205 205z"/>
<glyph glyph-name="row-2" unicode="&#57354;" d="M497 322l-43 0c-2 11-7 22-13 31l21 21c5 5 5 13 0 18-5 4-13 4-17 0l-22-22c-9 7-20 12-31 13l0 44c0 7-6 12-12 12-7 0-13-5-13-12l0-44c-11-1-22-6-31-13l-21 22c-5 4-13 4-18 0-5-5-5-13 0-18l22-21c-6-7-9-15-12-24-9-1-17-4-26-8-29 43-85 60-134 40-49-20-77-71-69-123-44-1-79-38-78-83 1-44 37-80 82-80l300 0c39 0 73 28 80 67 7 39-15 77-52 91 1 3 1 5 1 8 4 2 8 4 12 7l22-21c4-5 12-5 17 0 5 5 5 13 0 17l-21 22c6 9 11 20 13 31l43 0c7 0 13 6 13 12 0 7-6 13-13 13z m-58-165c0-32-26-57-57-57l-300 0c-32 0-57 25-57 57 0 31 25 57 57 57l29 0-6 16c-13 43 8 90 50 107 42 18 90 1 112-39l6-13 12 9c11 8 24 12 38 13 2 0 4-1 6-1 33-3 57-30 57-63 0-3 0-6 0-9-1-2-1-4-2-6l-3-13 13-2c26-6 45-29 45-56z m-31 110c-10 34-39 59-75 63 9 20 30 32 51 30 22-2 40-17 45-38 5-21-3-43-22-55z"/>
<glyph glyph-name="row-17" unicode="&#57355;" d="M451 360c0 4 1 7 1 11 0 53-44 97-97 97-16 0-32-4-46-12-33 48-94 66-148 44-53-21-84-77-75-134-49-2-87-43-86-92 1-49 41-88 90-88l330 0c43 0 80 31 88 74 8 43-16 85-57 100z m-31-147l-330 0c-35 0-63 28-63 63 0 34 28 62 63 63l32 0-6 17c-15 48 8 99 54 119 46 19 100 0 123-44l7-14 13 10c12 9 27 14 42 14 21 0 42-10 55-27 13-17 18-39 13-60l-4-14 14-3c31-6 53-36 49-68-3-32-30-56-62-56z m-310-49c-8 0-14-6-14-14l0-86c0-7 6-13 14-13 7 0 13 6 13 13l0 86c0 4-1 7-4 10-2 2-6 4-9 4z m118 0c-8 0-14-6-14-14l0-86c0-7 6-13 14-13 7 0 13 6 13 13l0 86c0 4-1 7-4 10-2 2-6 4-9 4z m59 0c-8 0-14-6-14-14l0-131c0-8 6-14 14-14 7 0 13 6 13 14l0 131c0 4-1 7-4 10-2 2-6 4-9 4z m-118 0c-8 0-14-6-14-14l0-131c0-8 6-14 14-14 7 0 13 6 13 14l0 131c0 4-1 7-4 10-2 2-6 4-9 4z m177 0c-8 0-14-6-14-14l0-86c0-7 6-13 14-13 7 0 13 6 13 13l0 86c0 4-1 7-4 10-2 2-6 4-9 4z m55 0c-8 0-14-6-14-14l0-43c0-7 6-13 14-13 7 0 13 6 13 13l0 43c0 4-1 7-4 10-2 2-6 4-9 4z"/>
<glyph glyph-name="row-18" unicode="&#57356;" d="M110 163l0 0c-3 0-7-2-9-4-3-3-4-6-4-10l0-87c0-7 6-13 14-13l0 0c7 0 13 6 13 13l0 87c0 8-6 14-14 14z m119 0l0 0c-7 0-13-6-13-13l0-87c0-8 6-14 14-14l0 0c7 0 13 6 13 14l0 87c0 7-6 13-14 13z m60 1l0 0c-4 0-7-2-10-5-2-2-4-6-4-9l1-133c0-8 6-14 13-14l0 0c8 0 14 6 14 14l-1 133c0 7-6 14-13 14z m-119-1l0 0c-8 0-14-6-14-14l1-133c0-7 6-13 13-13l0 0c4 0 7 1 10 4 3 2 4 6 4 9l-1 134c0 7-6 13-13 13z m178 1c-7 0-13-6-13-14l0-87c0-7 6-13 14-13l0 0c3 0 7 1 9 4 3 2 4 6 4 9l0 87c0 8-6 14-14 14z m56 0l0 0c-7 0-14-6-13-14l0-43c0-8 6-14 13-14l0 0c8 0 14 6 14 14l0 43c0 8-6 14-14 14z m52 193c0 4 0 7 0 11 1 54-43 98-97 98-16 0-32-3-46-11-33 48-95 67-149 45-54-22-86-78-77-136-36-1-67-24-81-58-13-33-5-71 20-97 17-17 40-27 64-27l333-1 1 0c44 0 81 31 89 75 8 43-16 85-57 101z m-32-149l0-14-1 14-332 1c-17 0-34 7-45 19-18 18-24 46-14 70 10 23 33 39 59 39l32 0-6 18c-9 29-4 62 15 87 18 25 48 40 79 40 36 0 69-20 86-52l7-14 13 9c12 9 27 14 42 14 22 0 42-10 56-27 13-18 18-40 12-61l-3-14 13-3c32-7 53-37 50-69-4-32-31-57-63-57z m-139 140l0 0-33 0 20 36c3 7 1 15-6 19-3 2-7 2-11 1-3-1-6-4-7-7l-30-56c-2-5-2-10 0-14 3-4 7-6 12-6l0 0 32 0-23-45c-3-6-1-15 6-18 7-4 15-1 18 6l34 64c2 4 2 9-1 13-2 5-7 7-11 7z"/>
<glyph glyph-name="row-19" unicode="&#57357;" d="M451 329c0 4 1 7 1 11 0 53-44 97-97 97-16 0-32-4-46-12-33 48-94 66-148 44-53-21-84-77-75-134-49-2-87-43-86-92 1-49 41-88 90-88l330 0c43 0 80 31 88 74 8 43-16 85-57 100z m-31-147l-330 0c-35 0-63 28-63 63 0 34 28 63 63 63l32 0-6 17c-15 48 8 99 54 119 46 19 100 0 123-44l7-14 13 10c12 9 27 14 42 14 21 0 42-10 55-27 13-17 18-39 13-60l-4-14 14-3c31-6 53-36 49-68-3-32-30-56-62-56z m-233-88c-8 0-14-7-14-14 0-7 6-13 14-13 7 0 13 6 13 13l0 1c0 3-1 7-4 9-3 3-6 4-9 4z m-69 34c-7-1-13-7-13-14 0-8 6-14 13-14 8 0 14 6 14 14l0 1c0 3-2 6-4 9-3 2-6 4-10 4z m0-67c-7 0-13-6-13-14 0-7 6-13 13-13 8 0 14 6 14 13l0 1c0 3-2 7-4 9-3 3-6 4-10 4z m205 33c-8 0-14-7-14-14 0-7 6-13 14-13 7 0 13 6 13 13l0 1c0 3-1 7-4 9-2 3-6 4-9 4z m-68 34c-8-1-14-7-14-14 0-8 6-14 14-14 7 0 13 6 13 14l0 1c0 3-1 6-4 9-2 2-6 4-9 4z m0-67c-8 0-14-6-14-14 0-7 6-13 14-13 7 0 13 6 13 13l0 1c0 3-1 7-4 9-2 3-6 4-9 4z m136 67c-7-1-13-7-13-14 0-8 6-14 13-14 7 0 13 6 13 14l0 1c0 3-1 6-4 9-2 2-5 4-9 4z m0-67c-7 0-13-6-13-14 0-7 6-13 13-13 7 0 13 6 13 13l0 1c0 3-1 7-4 9-2 3-5 4-9 4z"/>
<glyph glyph-name="row-21" unicode="&#57358;" d="M419 96l-329 0c-49 0-89 39-90 88-1 49 37 89 86 91-1 7-2 14-2 20 0 54 36 102 87 118 52 16 108-3 138-47 14 7 30 11 46 11 53 0 97-43 97-97 0-3-1-7-1-10 41-16 65-58 57-100-8-43-45-74-89-74z m-329 152c-23 1-44-11-55-31-11-19-11-44 0-63 11-20 32-32 55-31l329 0c33 0 60 24 63 56 4 32-18 61-49 68l-14 3 4 13c7 29-5 59-29 76-25 16-57 15-81-3l-13-9-7 14c-23 44-77 63-123 43-46-19-69-70-54-118l6-18z"/>
<glyph glyph-name="shape-1-copy" unicode="&#57359;" d="M50 273l-33 0c-10 0-17-7-17-17 0-9 7-16 17-16l33 0c9 0 17 7 17 16 0 10-8 17-17 17z m444 0l-33 0c-9 0-17-7-17-17 0-9 8-16 17-16l33 0c10 0 17 7 17 16 0 10-7 17-17 17z m-238-205c-10 0-17-8-17-17l0-33c0-10 7-17 17-17 9 0 16 7 16 17l0 33c0 9-7 17-16 17z m0 444c-10 0-17-7-17-17l0-33c0-9 7-17 17-17 9 0 16 8 16 17l0 33c0 10-7 17-16 17z m133-454l-16 29c-3 5-9 8-15 8-6 0-11-3-14-8-3-5-3-12 0-17l17-29c4-8 14-10 22-6 8 5 11 15 6 23z m-222 385l-16 29c-5 8-15 10-23 6-8-5-11-15-6-23l16-29c5-8 15-11 23-6 8 5 11 15 6 23z m304-292l-29 17c-5 3-12 3-17 0-5-3-8-8-8-14 0-6 3-12 8-15l29-16c5-4 12-4 17-1 5 3 8 9 8 15 0 6-3 11-8 14z m-385 223l-29 16c-8 5-18 2-22-6-5-8-2-18 5-23l29-16c8-5 18-2 23 6 4 8 2 18-6 23z m391 10c-5 8-15 11-23 6l-29-16c-5-3-8-9-8-15 0-6 3-11 8-14 5-3 12-3 17 0l29 16c8 5 10 15 6 23z m-385-222c-5 8-15 11-23 6l-29-17c-5-3-8-8-8-14 0-6 3-12 8-15 5-3 12-3 17 1l29 16c8 5 11 15 6 23z m291 316c-8 4-18 2-22-6l-17-29c-3-5-3-12 0-17 3-5 8-8 14-8 6 0 12 3 15 8l16 29c5 8 2 18-6 23z m-222-385c-8 4-18 2-23-6l-16-29c-5-8-2-18 6-23 8-4 18-2 23 6l16 29c5 8 2 18-6 23z m95 319c-86 0-156-70-156-156 0-86 70-155 156-155 85 0 155 69 155 155 0 86-70 156-155 156z m0-278c-68 0-123 55-123 122 0 68 55 123 123 123 67 0 122-55 122-123 0-67-55-122-122-122z m0 211c-50 0-89-40-89-89 0-9 7-16 16-16 10 0 17 7 17 16 0 31 25 56 56 56 9 0 16 7 16 17 0 9-7 16-16 16z"/>
<glyph glyph-name="flaticon-2" unicode="&#57360;" d="M205 256c0-14-12-26-26-26l-153 0c-15 0-26 12-26 26 0 14 11 26 26 26l153 0c14 0 26-12 26-26z m-26-77c14 0 26-11 26-25 0-15-12-26-26-26l-153 0c-15 0-26 11-26 26 0 14 11 25 26 25z m318 103c14 0 15-12 15-26 0-14-1-26-15-26l-87 0 0-87c0-14-12-15-26-15-14 0-26 1-26 15l0 87-84 0c-14 0-15 12-15 26 0 14 1 26 15 26l84 0 0 87c0 14 12 15 26 15 14 0 26-1 26-15l0-87z m-318 102c14 0 26-11 26-26 0-14-12-25-26-25l-153 0c-15 0-26 11-26 25 0 15 11 26 26 26z"/>
<glyph glyph-name="flaticon-3" unicode="&#57361;" d="M256 0c-61 0-118 24-161 67-44 43-67 100-67 161 0 61 23 119 67 162 13 14 35 14 49 0 14-14 14-36 0-50-30-30-46-69-46-112 0-42 16-82 46-111 30-30 70-47 112-47 42 0 82 17 112 47 30 29 46 69 46 111 0 43-16 82-46 112-14 14-14 36 0 50 14 14 36 14 49 0 44-43 67-101 67-162 0-61-23-118-67-161-43-43-100-67-161-67z m0 266c-19 0-35 16-35 35l0 176c0 19 16 35 35 35 19 0 35-16 35-35l0-176c0-19-16-35-35-35z"/>
<glyph glyph-name="menu-button" unicode="&#57362;" d="M0 85l512 0 0 57-512 0z m0 143l512 0 0 56-512 0z m0 199l0-57 512 0 0 57z"/>
<glyph glyph-name="user" unicode="&#57363;" d="M254 236c1 0 1 0 2 0 0 0 0 0 0 0 1 0 1 0 2 0 31 1 56 12 74 32 41 46 34 125 34 133-3 56-30 83-52 96-16 9-35 15-57 15l-1 0c0 0 0 0 0 0l-1 0c-11 0-35-2-57-15-22-12-49-39-52-96-1-8-7-87 34-133 18-20 43-31 74-32z m-79 162c0 1 0 1 0 1 3 76 57 84 80 84l1 0c0 0 0 0 0 0 29 0 78-12 81-84 0 0 0-1 0-1 0-1 8-73-26-111-13-15-31-22-55-22 0 0 0 0 0 0 0 0 0 0-1 0-23 0-41 7-54 22-34 38-27 111-26 111z m299-293c0 0 0 0 0 1 0 0 0 1 0 2-1 21-2 70-48 86-1 0-1 0-1 0-48 13-88 40-88 40-7 5-16 3-20-3-5-7-3-15 3-20 2-1 44-31 97-44 25-9 27-35 28-60 0-1 0-1 0-2 0-10 0-25-2-33-17-10-85-43-187-43-102 0-170 33-187 43-2 9-2 23-2 33 0 1 0 2 0 3 1 24 3 50 28 59 53 13 95 43 97 44 6 5 8 14 3 20-4 6-13 8-20 4 0-1-39-28-88-41 0 0 0 0-1 0-46-16-47-65-48-86 0-1 0-1 0-2 0 0 0-1 0-1 0-5 0-33 6-48 1-2 3-5 5-6 3-2 80-51 207-51 128 0 204 49 207 51 3 1 5 4 6 6 5 14 5 43 5 48z"/>
<glyph glyph-name="neva" unicode="&#57364;" d="M448 288l-160 0 0 160-64 0 0-160-160 0 0-64 160 0 0-160 64 0 0 160 160 0z"/>
<glyph glyph-name="neva-1" unicode="&#57365;" d="M448 112c0 0-37 208-224 208l0 80-160-144 160-134 0 92c102 0 171-9 224-102z"/>
<glyph glyph-name="neva-2" unicode="&#57366;" d="M313 156l0-113 199 199-199 199 0-117c-142 0-242 46-313 145 28-142 114-284 313-313z"/>
<glyph glyph-name="neva-3" unicode="&#57367;" d="M391 231l-220-220c-14-14-36-14-50 0-14 14-14 36 0 50l194 195-194 195c-14 14-14 37 0 50 14 15 36 15 50 0l220-220c7-7 11-16 11-25 0-9-4-18-11-25z"/>
<glyph glyph-name="neva-4" unicode="&#57368;" d="M110 256c0 9 4 18 11 25l220 220c14 15 36 15 50 0 14-13 14-36 0-50l-194-195 194-195c14-14 14-36 0-50-14-14-36-14-50 0l-220 220c-7 7-11 16-11 25z"/>
<glyph glyph-name="chat" unicode="&#57369;" d="M469 205c-5 11-16 16-27 11-10-4-15-15-11-26l24-58-70 31c-5 2-11 2-16 0-24-10-49-15-76-15-107 0-179 84-179 162 0 89 80 162 179 162 99 0 179-73 179-162 0-7-1-15-2-23-1-11 6-21 17-23 11-1 21 6 23 17 1 10 2 20 2 29 0 54-23 105-65 143-41 38-96 59-154 59-58 0-113-21-154-59-38-34-60-78-64-126-47-31-75-81-75-135 0-33 11-65 31-92l-30-73c-3-7-1-16 5-21 4-4 9-6 14-6 3 0 5 1 8 2l84 37c21-8 44-12 67-12 1 0 1 0 1 0 34 0 66 9 95 26 25 14 46 35 60 58 14 3 28 7 42 12l107-47c3-1 5-2 8-2 5 0 10 2 14 6 6 5 8 14 5 21z m-290-138c0 0-1 0-1 0-20 0-40 4-58 12-5 2-11 2-16 0l-47-21 15 38c3 6 2 14-3 20-19 22-29 49-29 76 0 32 13 63 37 86 7-40 28-78 59-108 39-38 90-59 146-62-26-26-64-41-103-41z m133 242c0-11-9-20-20-20-11 0-20 9-20 20 0 11 9 20 20 20 11 0 20-9 20-20z m80 0c0-11-9-20-20-20-11 0-20 9-20 20 0 11 9 20 20 20 11 0 20-9 20-20z m-160 0c0-11-9-20-20-20-11 0-20 9-20 20 0 11 9 20 20 20 11 0 20-9 20-20z"/>
<glyph glyph-name="calendar-1" unicode="&#57370;" d="M492 160c11 0 20 9 20 20l0 212c0 44-36 80-80 80l-26 0 0 20c0 11-9 20-20 20-11 0-20-9-20-20l0-20-91 0 0 20c0 11-9 20-20 20-11 0-20-9-20-20l0-20-90 0 0 20c0 11-9 20-20 20-11 0-20-9-20-20l0-20-25 0c-44 0-80-36-80-80l0-312c0-44 36-80 80-80l352 0c44 0 80 36 80 80 0 11-9 20-20 20-11 0-20-9-20-20 0-22-18-40-40-40l-352 0c-22 0-40 18-40 40l0 312c0 22 18 40 40 40l25 0 0-20c0-11 9-20 20-20 11 0 20 9 20 20l0 20 90 0 0-20c0-11 9-20 20-20 11 0 20 9 20 20l0 20 91 0 0-20c0-11 9-20 20-20 11 0 20 9 20 20l0 20 26 0c22 0 40-18 40-40l0-212c0-11 9-20 20-20z m-347 142c0-11-9-20-20-20-11 0-20 9-20 20 0 11 9 20 20 20 11 0 20-9 20-20z m174 0c0-11-9-20-20-20-11 0-20 9-20 20 0 11 9 20 20 20 11 0 20-9 20-20z m87 0c0-11-9-20-20-20-11 0-20 9-20 20 0 11 9 20 20 20 11 0 20-9 20-20z m-261-87c0-11-9-20-20-20-11 0-20 9-20 20 0 11 9 20 20 20 11 0 20-9 20-20z m0-87c0-11-9-20-20-20-11 0-20 9-20 20 0 11 9 20 20 20 11 0 20-9 20-20z m87 174c0-11-9-20-20-20-11 0-20 9-20 20 0 11 9 20 20 20 11 0 20-9 20-20z m0-87c0-11-9-20-20-20-11 0-20 9-20 20 0 11 9 20 20 20 11 0 20-9 20-20z m0-87c0-11-9-20-20-20-11 0-20 9-20 20 0 11 9 20 20 20 11 0 20-9 20-20z m87 87c0-11-9-20-20-20-11 0-20 9-20 20 0 11 9 20 20 20 11 0 20-9 20-20z m87 0c0-11-9-20-20-20-11 0-20 9-20 20 0 11 9 20 20 20 11 0 20-9 20-20z m-87-87c0-11-9-20-20-20-11 0-20 9-20 20 0 11 9 20 20 20 11 0 20-9 20-20z"/>
<glyph glyph-name="stats-bars" unicode="&#57371;" d="M176 416l64 0 0-320-64 0z m-96-224l64 0 0-96-64 0z m192 64l64 0 0-160-64 0z m96 64l64 0 0-224-64 0z"/>
<glyph glyph-name="dots-menu" unicode="&#57372;" d="M61 507c-33 0-59-26-59-59 0-34 26-60 59-60 34 0 60 26 60 60 0 33-26 59-60 59z m194 0c-33 0-60-26-60-59 0-34 27-60 60-60 33 0 60 26 60 60 0 33-27 59-60 59z m197-119c33 0 60 26 60 60 0 33-27 59-60 59-33 0-60-26-60-59 0-34 27-60 60-60z m-392-192c33 0 60 27 60 60 0 33-27 59-60 59-33 0-60-26-60-59 0-33 27-60 60-60z m194 0c33 0 60 27 60 60 0 33-27 59-60 59-33 0-60-26-60-59 0-33 27-60 60-60z m197 0c33 0 60 27 60 60 0 33-27 59-60 59-33 0-60-26-60-59 0-33 27-60 60-60z m-390-72c-33 0-60-27-60-60 0-33 27-60 60-60 33 0 60 27 60 60 0 33-27 60-60 60z m194 0c-33 0-60-27-60-60 0-33 27-60 60-60 33 0 60 27 60 60 0 33-27 60-60 60z m197 0c-33 0-60-27-60-60 0-33 27-60 60-60 33 0 60 27 60 60 0 33-27 60-60 60z"/>
<glyph glyph-name="neva-5" unicode="&#57373;" d="M295 344l80 0-9-88-71 0 0-256-105 0 0 256-53 0 0 88 53 0 0 53c0 38 8 67 26 86 18 19 47 29 88 29l71 0 0-88-44 0c-9 0-15-1-20-2-5-2-8-4-10-8-3-3-4-7-5-10 0-4-1-9-1-16z"/>
<glyph glyph-name="neva-6" unicode="&#57374;" d="M512 415c-14-21-32-40-53-55 1-4 1-9 1-13 0-139-106-299-299-299-59 0-115 17-161 47 8-1 17-1 25-1 49 0 95 16 130 44-46 1-84 32-98 74 7-2 13-2 20-2 10 0 19 1 28 3-48 10-85 52-85 103l0 2c14-8 31-13 48-13-28 18-47 50-47 87 0 19 6 37 15 53 52-64 129-106 216-110-2 8-2 16-2 24 0 58 46 105 104 105 30 0 58-13 77-33 24 5 46 13 67 25-8-24-25-45-46-58 21 3 41 8 60 17z"/>
<glyph glyph-name="neva-7" unicode="&#57375;" d="M505 378c9-82 9-162 0-244-3-22-24-44-46-47-135-17-271-17-406 0-22 3-43 25-46 47-9 82-9 162 0 244 3 22 24 44 46 47 135 17 271 17 406 0 22-3 43-25 46-47z m-292-207l128 85-128 85z"/>
<glyph glyph-name="neva-8" unicode="&#57376;" d="M384 512c70 0 128-58 128-128l0-256c0-70-58-128-128-128l-256 0c-70 0-128 58-128 128l0 256c0 70 58 128 128 128z m85-384l0 256c0 47-38 85-85 85l-256 0c-47 0-85-38-85-85l0-256c0-47 38-85 85-85l256 0c47 0 85 38 85 85z m-106 267c0 17 14 32 32 32 17 0 32-15 32-32 0-18-15-32-32-32-18 0-32 14-32 32z m-107-11c71 0 128-57 128-128 0-71-57-128-128-128-71 0-128 57-128 128 0 71 57 128 128 128z m0-213c47 0 85 38 85 85 0 47-38 85-85 85-47 0-85-38-85-85 0-47 38-85 85-85z"/>
<glyph glyph-name="neva-9" unicode="&#57377;" d="M512 201l0-190-110 0 0 177c0 44-16 75-55 75-31 0-49-21-57-41-3-7-3-16-3-26l0-185-110 0c0 0 1 299 0 330l110 0 0-46c-1-1-1-1-1-1l1 0 0 1c14 22 40 54 99 54 72 0 126-47 126-148z m-450 300c38 0 61-25 61-57 0-32-23-57-62-57-37 0-61 25-61 57 0 32 25 57 62 57z m-55-490l0 330 109 0 0-330z"/>
<glyph glyph-name="neva-10" unicode="&#57378;" d="M70 140c19 0 36-7 49-21 14-13 21-30 21-49 0-20-7-36-21-50-13-13-30-20-49-20-20 0-36 7-50 20-13 14-20 30-20 50 0 19 7 36 20 49 14 14 30 21 50 21z m161 91c27-28 49-59 66-95 16-35 26-72 29-111 0-7-2-12-6-17-5-5-10-8-17-8l-50 0c-6 0-11 2-15 6-5 4-7 9-7 15-6 56-28 103-68 142-39 40-86 62-142 68-6 0-11 2-15 7-4 4-6 9-6 15l0 50c0 7 3 12 8 17 4 4 9 6 15 6l2 0c39-3 76-13 111-29 36-17 67-39 95-66z m237-24c26-58 41-119 44-183 0-6-2-12-7-17-4-5-10-7-16-7l-52 0c-7 0-12 2-17 6-4 5-6 10-7 16-3 52-15 101-36 148-22 47-50 88-84 123-35 34-76 62-123 84-47 21-96 34-148 37-6 0-11 2-16 7-4 4-6 10-6 16l0 52c0 6 2 12 7 16 5 5 10 7 16 7l1 0c64-3 125-18 183-44 58-26 109-61 154-107 46-45 81-96 107-154z"/>
<glyph glyph-name="neva-11" unicode="&#57379;" d="M263 512c113 0 201-77 201-179 0-107-71-193-169-193-33 0-64 16-75 35 0 0-16-59-20-74-11-40-50-95-53-100-2-2-5-1-6 2-1 6-12 72-2 113 6 25 38 155 38 155 0 0-10 18-10 46 0 43 27 75 59 75 28 0 41-19 41-43 0-27-18-67-27-104-7-31 16-56 48-56 58 0 103 58 103 142 0 75-56 127-136 127-93 0-147-67-147-135 0-27 10-55 24-71 3-3 3-6 2-9-2-10-8-31-9-35-1-6-5-7-11-4-41 18-66 75-66 120 0 98 75 188 215 188z"/>
<glyph glyph-name="neva-12" unicode="&#57380;" d="M336 83c26 0 52 9 78 26l0-81c-23-11-43-18-60-22-17-4-36-6-57-6-24 0-44 3-62 9-18 6-33 14-46 25-13 11-22 23-27 35-5 12-7 30-7 54l0 179-57 0 0 73c21 6 38 16 52 28 14 12 26 27 34 44 9 17 15 39 18 65l73 0 0-129 122 0 0-81-122 0 0-131c0-30 2-49 5-57 3-9 9-15 17-20 11-7 24-11 39-11z"/>
<glyph glyph-name="whatsapp-logo-variant" unicode="&#57381;" d="M507 265c0-136-112-246-249-246-44 0-85 11-120 30l-138-44 45 133c-23 37-36 81-36 127 0 137 112 247 249 247 137 0 249-110 249-247z m-249 208c-115 0-209-93-209-208 0-45 15-87 40-121l-26-77 80 25c33-22 72-34 115-34 115 0 209 93 209 207 0 115-94 208-209 208z m125-265c-1 3-5 4-11 7-6 4-36 18-42 20-6 2-10 3-14-3-4-6-15-20-19-24-4-4-7-4-13-1-6 3-26 9-49 30-18 16-31 36-34 42-4 6 0 9 3 12 2 3 6 7 9 11 3 3 4 6 6 10 2 4 1 7-1 10-1 3-13 33-18 45-6 12-11 10-14 10-4 0-8 1-12 1-4 0-11-2-16-8-6-6-21-20-21-50 0-30 21-59 24-63 4-4 43-67 105-91 62-24 62-16 73-15 11 1 36 14 41 29 5 14 5 26 3 28z"/>
<glyph glyph-name="denge-1" unicode="&#57382;" d="M256 308c-11 0-20-8-20-20l0-268c0-11 9-20 20-20 11 0 20 9 20 20l0 268c0 12-9 20-20 20z m42 83c-23 24-61 24-84 0l-75-74c-8-8-8-21 0-29 4-4 9-6 14-6 5 0 10 2 14 6l75 75c8 8 20 8 28 0l76-75c8-7 20-7 28 0 8 8 8 21 0 29z m194 121l-472 0c-11 0-20-9-20-20 0-11 9-20 20-20l472 0c11 0 20 9 20 20 0 11-9 20-20 20z"/>
<glyph glyph-name="google" unicode="&#57383;" d="M512 359l-68 14 0 123-376 0 0-123-68-14 53-264 0-79 406 0 0 79z m-53-110l0 61-50 0-8 41 76-15z m-361 217l316 0 0-87-19 4-11 53-286-57z m-63-130l326 65 18-91-326 0 0-61z m394-290l-346 0 0 235 346 0z m-229 30c48 0 87 39 87 87l0 15-87 0 0-30 56 0c-7-24-29-42-56-42-32 0-57 25-57 57 0 32 25 58 57 58 15 0 29-6 40-16l20 21c-16 16-37 25-60 25-48 0-87-40-87-88 0-48 39-87 87-87z m117 162l82 0 0-30-82 0z m0-60l82 0 0-30-82 0z m0-60l82 0 0-30-82 0z"/>
<glyph glyph-name="dot-3" unicode="&#57384;" d="M77 312c16 0 29-5 40-16 11-11 16-24 16-40 0-15-5-28-16-39-11-12-24-17-40-17-16 0-29 5-40 17-11 11-17 24-17 39 0 16 6 29 17 40 11 11 24 16 40 16m179 0c16 0 29-5 40-16 11-11 16-24 16-40 0-15-5-28-17-39-11-12-24-17-39-17-15 0-28 5-39 17-12 11-17 24-17 39 0 16 5 29 16 40 11 11 24 16 40 16m179 0c16 0 29-5 40-16 11-11 17-24 17-40 0-15-6-28-17-39-11-12-24-17-40-17-15 0-29 5-40 17-11 11-16 24-16 39 0 16 5 29 16 40 11 11 25 16 40 16"/>
<glyph glyph-name="expand" unicode="&#57385;" d="M178 224l-105-105-41 41c-18 0-32-14-32-32l0-96c0-18 14-32 32-32l96 0c18 0 32 14 32 32l-41 41 105 105z m302 288l-96 0c-18 0-32-14-32-32l41-41-105-105 46-46 105 105 41-41c18 0 32 14 32 32l0 96c0 18-14 32-32 32z m0-352l-41-41-105 105-46-46 105-105-41-41c0-18 14-32 32-32l96 0c18 0 32 14 32 32l0 96c0 18-14 32-32 32z m-320 320c0 18-14 32-32 32l-96 0c-18 0-32-14-32-32l0-96c0-18 14-32 32-32l41 41 105-105 46 46-105 105z"/>
<glyph glyph-name="at" unicode="&#57386;" d="M418 127l-7-5c-17-13-34-24-50-31-29-13-61-20-95-20-49 0-91 14-126 44-39 33-58 78-58 135 0 51 16 95 50 131 36 41 85 61 146 61 33 0 63-8 89-22 42-24 63-62 63-115 0-36-7-65-23-87-15-22-31-33-46-33-8 0-14 3-18 8-3 5-5 10-5 16 0 4 1 8 2 13 1 5 3 13 5 23l35 126-51 0-9-37c-3 12-8 22-16 30-11 12-25 17-44 17-32 0-59-15-81-46-22-30-33-63-33-98 0-31 8-54 22-71 15-17 32-25 54-25 21 0 39 7 55 22 8 8 16 20 22 34 0-2 0-4 0-6 0-2 0-3 0-4 0-11 4-22 13-32 9-10 22-15 38-15 32 0 60 16 85 47 24 32 37 70 37 114 0 56-20 101-59 135-37 32-83 48-139 48-70 0-126-24-171-71-42-44-63-98-63-162 0-57 17-106 51-147 41-51 98-76 172-76 32 0 63 6 92 17 30 11 57 28 83 49 0 0 12 11 5 27-7 16-21 9-25 6z m-132 104c-12-32-28-47-47-47-11 0-19 4-25 13-6 8-9 20-9 34 0 24 7 48 20 73 13 25 29 38 48 38 10 0 17-4 23-11 5-7 8-15 8-26 0-18-6-43-18-74z"/>
<glyph glyph-name="neva-13" unicode="&#57387;" d="M508 301c6-9 5-21-3-28l-102-82c-3-3-8-5-12-5-5 0-11 2-14 6l-7 6-79-139c-3-5-8-9-14-10l-253-49c-2 0-3 0-4 0-5 0-10 2-14 6-5 4-7 11-6 18l49 253c1 6 5 11 10 14l139 79-6 7c-7 7-8 18-1 26l82 102c7 8 19 9 28 3 8-7 10-20 3-28l-71-88 159-159 88 71c8 7 21 5 28-3z m-247-215l80 141-114 114-141-80-34-181 121 121c-3 6-4 13-4 21 0 14 5 27 15 38 10 10 24 15 38 15 15 0 28-5 38-15 21-21 21-55 0-76-10-10-23-16-38-16-7 0-14 2-21 4l-121-120z m-49 126c3-3 7-4 10-4 4 0 7 1 10 4 5 5 5 14 0 19-3 3-6 4-10 4-3 0-7-1-10-4-2-2-4-6-4-9 0-4 2-8 4-10z"/>
<glyph glyph-name="neva-14" unicode="&#57388;" d="M256 512c141 0 256-115 256-256 0-141-115-256-256-256-141 0-256 115-256 256 0 141 115 256 256 256z m26-384l0 154-52 0 0-154z m0 205l0 51-52 0 0-51z"/>
<glyph glyph-name="neva-15" unicode="&#57389;" d="M256 512c141 0 256-115 256-256 0-141-115-256-256-256-141 0-256 115-256 256 0 141 115 256 256 256z m26-384l0 51-52 0 0-51z m0 102l0 154-52 0 0-154z"/>
<glyph glyph-name="neva-16" unicode="&#57390;" d="M256 512c141 0 256-115 256-256 0-141-115-256-256-256-141 0-256 115-256 256 0 141 115 256 256 256z m143-171c7 9 6 21-2 28-8 7-21 7-28-1l-145-164-84 67c-8 7-21 6-27-3-7-8-6-21 3-27l98-79c4-3 8-4 12-4 6 0 11 2 15 6z"/>
<glyph glyph-name="neva-17" unicode="&#57391;" d="M202 136c5 5 10 7 17 7 7 0 13-2 19-7 10-11 10-23 0-36 0 0-22-20-22-20-19-19-42-29-68-29-26 0-49 10-68 29-19 19-29 42-29 67 0 27 10 50 29 69 0 0 76 76 76 76 24 23 48 36 73 39 26 3 47-4 66-22 5-5 8-11 8-18 0-7-3-13-8-19-12-11-24-11-36 0-17 17-40 11-68-17 0 0-75-75-75-75-9-9-14-20-14-33 0-13 5-23 14-31 9-9 19-14 32-14 13 0 23 5 32 14 0 0 22 20 22 20m230 294c19-19 29-42 29-68 0-26-10-49-29-68 0 0-81-81-81-81-25-25-51-37-77-37-21 0-40 9-57 26-5 5-7 10-7 17 0 7 2 13 7 19 5 4 11 7 18 7 7 0 13-3 18-7 17-17 38-13 62 12 0 0 81 80 81 80 10 9 15 20 15 32 0 13-5 24-15 32-8 9-17 14-28 16-11 2-22-2-31-11 0 0-26-25-26-25-5-5-11-7-18-7-7 0-13 2-18 7-11 11-11 23 0 36 0 0 26 25 26 25 18 19 40 27 65 26 25-1 47-11 66-31"/>
<glyph glyph-name="neva-18" unicode="&#57392;" d="M119 375c0 10-3 18-10 25-6 6-14 10-24 10-9 0-17-4-24-10-6-7-10-15-10-25 0-9 4-17 10-24 7-6 15-10 24-10 10 0 18 4 24 10 7 7 10 15 10 24z m285-153c0-10-3-18-10-24l-131-131c-7-7-15-10-24-10-9 0-17 3-24 10l-191 191c-6 6-12 15-17 27-5 11-7 21-7 31l0 111c0 9 3 17 10 24 7 6 15 10 24 10l111 0c9 0 20-3 31-7 12-5 21-11 27-17l191-191c7-7 10-15 10-24z m102 0c0-10-3-18-9-24l-131-131c-7-7-15-10-25-10-6 0-11 1-15 4-4 2-9 6-15 12l126 125c6 6 10 14 10 24 0 9-4 17-10 24l-191 191c-7 6-16 12-27 17-11 4-22 7-31 7l59 0c10 0 20-3 32-7 11-5 20-11 27-17l191-191c6-7 9-15 9-24z"/>
<glyph glyph-name="neva-19" unicode="&#57393;" d="M254 174l33 33-44 43-33-33 0-16 28 0 0-27z m125 205c-3 3-6 3-9 0l-100-100c-3-3-3-6 0-9 3-3 6-3 9 0l100 100c3 3 3 6 0 9z m23-169l0-55c0-22-8-42-24-58-16-16-35-24-58-24l-238 0c-22 0-42 8-58 24-16 16-24 36-24 58l0 238c0 23 8 42 24 58 16 16 36 24 58 24l238 0c12 0 23-2 33-7 3-1 5-3 6-6 0-4-1-6-3-9l-14-14c-3-2-6-3-9-2-5 1-9 2-13 2l-238 0c-12 0-23-5-32-14-9-9-13-19-13-32l0-238c0-12 4-23 13-32 9-9 20-13 32-13l238 0c13 0 23 4 32 13 9 9 14 20 14 32l0 36c0 3 1 5 2 7l19 18c2 3 6 4 10 2 3-2 5-4 5-8z m-27 211l82-83-192-192-82 0 0 83z m127-38l-27-26-82 82 26 26c6 5 12 8 20 8 7 0 14-3 19-8l44-43c5-6 8-12 8-20 0-7-3-14-8-19z"/>
<glyph glyph-name="neva-20" unicode="&#57394;" d="M437 320c6 0 11-5 11-11l0-266c0-24-19-43-43-43l-298 0c-24 0-43 19-43 43l0 266c0 6 5 11 11 11l32 0 0 43c0 82 67 149 149 149 82 0 149-67 149-149l0-43z m-149-223l-7 61c11 8 18 20 18 34 0 24-19 43-43 43-24 0-43-19-43-43 0-14 7-26 18-34l-7-61c0-3 1-6 3-8 2-2 5-4 8-4l42 0c3 0 6 2 8 4 2 2 3 5 3 8z m53 223l0 43c0 47-38 85-85 85-47 0-85-38-85-85l0-43z"/>
<glyph glyph-name="neva-21" unicode="&#57395;" d="M256 307c42 0 77-34 77-77 0-42-35-76-77-76-42 0-77 34-77 76 0 43 35 77 77 77z m205 77c28 0 51-23 51-51l0-231c0-28-23-51-51-51l-410 0c-28 0-51 23-51 51l0 231c0 28 23 51 51 51l62 0c8 0 17 7 20 15l16 47c2 8 12 15 20 15l174 0c8 0 18-7 20-15l16-47c3-8 12-15 20-15z m-205-282c71 0 128 58 128 128 0 71-57 128-128 128-71 0-128-57-128-128 0-70 57-128 128-128z m187 195c10 0 18 8 18 18 0 10-8 18-18 18-10 0-18-8-18-18 0-10 8-18 18-18z"/>
<glyph glyph-name="neva-22" unicode="&#57396;" d="M443 460l-116 0c-10 30-38 52-72 52-33 0-61-22-71-52l-115 0c-24 0-44-20-44-44l0-372c0-24 20-44 44-44l374 0c24 0 44 20 44 44l0 372c0 24-20 44-44 44z m-188 3c15 0 27-12 27-26 0-14-12-26-27-26-14 0-26 12-26 26 0 14 12 26 26 26z m131-377c0-8-7-14-15-14l-230 0c-8 0-15 6-15 14l0 7c0 18 9 35 23 46 29 21 57 35 63 38 1 0 1 1 1 2l0 25c-4 7-6 14-7 20-3 1-7 5-11 19-5 19 1 22 5 21-1 3-1 6-2 8-1 9-2 18 0 26 3 11 9 19 15 26 4 4 9 8 14 11 4 3 8 6 13 7 4 1 8 2 12 3 14 1 24-3 31-7 11-6 15-14 15-14 0 0 24-2 16-52-1-2-1-5-2-8 5 1 11-2 5-21-4-14-8-18-10-19-1-6-4-13-8-20l0-25c0-1 1-2 2-2 6-3 33-17 62-38 15-11 23-28 23-46z"/>
<glyph glyph-name="neva-23" unicode="&#57397;" d="M256 484c-126 0-228-102-228-228 0-126 102-228 228-228 126 0 228 102 228 228 0 126-102 228-228 228z m0-399c-94 0-171 77-171 171 0 94 77 171 171 171 94 0 171-77 171-171 0-94-77-171-171-171z m58 173c-10-9-27-16-31-18-4-2-4-4-4-10l0-8-57 0 0 18c0 14 1 22 16 30l20 10c7 5 16 8 16 15 0 8-7 11-24 11-16 0-33-6-45-14l-15 50c8 4 30 18 72 18 42 0 72-26 72-57 0-26-9-36-20-45z m-64-111c-22 0-37 12-37 32 0 21 15 33 37 33 22 0 37-12 37-33 0-20-15-32-37-32z"/>
<glyph glyph-name="neva-24" unicode="&#57398;" d="M512 224l0 64-76 32c-3 6-5 12-8 18l31 77-45 45-76-31c-6 2-12 5-18 7l-32 76-64 0-32-76c-6-2-13-4-19-7l-76 30-45-45 31-75c-3-7-5-13-8-19l-75-32 0-64 75-32c3-6 5-13 8-19l-30-76 45-45 76 31c6-3 12-5 18-7l32-76 64 0 32 76c6 2 12 5 18 8l77-31 45 45-32 76c3 6 5 12 7 18z m-256-64c-53 0-96 43-96 96 0 53 43 96 96 96 52 0 96-43 96-96 0-53-44-96-96-96z"/>
<glyph glyph-name="neva-25" unicode="&#57399;" d="M345 431l162-162c7-7 7-19 0-26l-162-162c-7-7-19-7-26 0-7 7-7 19 0 26l131 131-432 0c-10 0-18 8-18 18 0 10 8 18 18 18l432 0-131 131c-7 7-7 19 0 26 7 7 19 7 26 0z"/>
<glyph glyph-name="neva-26" unicode="&#57400;" d="M156 256l231 231c6 6 6 15 0 21-6 5-15 5-20 0l-242-242c-6-5-6-15 0-20l242-242c2-2 6-4 10-4 3 0 7 1 10 4 6 6 6 15 0 21z"/>
<glyph glyph-name="neva-27" unicode="&#57401;" d="M61 256l219 219c9 9 9 22 0 31-8 8-22 8-30 0l-233-233c-5-5-7-11-6-17-1-6 1-12 6-17l233-233c8-8 22-8 30 0 9 9 9 22 0 31z m257 0l177 176c8 9 8 22 0 31-9 8-22 8-30 0l-191-190c-4-5-6-11-5-17-1-6 1-12 5-17l191-190c8-8 21-8 30 0 8 9 8 22 0 31z"/>
<glyph glyph-name="neva-28" unicode="&#57402;" d="M243 256c1 6-1 12-6 17l-190 190c-8 8-22 8-30 0-9-9-9-22 0-31l176-176-176-176c-9-9-9-22 0-31 8-8 22-8 30 0l190 190c5 5 7 11 6 17z m253 17l-234 233c-8 8-22 8-30 0-9-9-9-22 0-31l220-219-220-219c-9-9-9-22 0-31 8-8 22-8 30 0l234 233c4 5 6 11 6 17 0 6-2 12-6 17z"/>
<glyph glyph-name="neva-29" unicode="&#57403;" d="M160 31c-3-4-7-5-11-5-5 0-8 1-12 5-6 6-6 16 0 23l203 202-203 202c-6 7-6 17 0 23 7 7 17 7 23 0l214-213c7-7 7-17 0-24z"/>
<glyph glyph-name="neva-30" unicode="&#57404;" d="M0 85l171 0 0 57-171 0z m0 342l0-57 512 0 0 57z m0-199l341 0 0 56-341 0z"/>
</font>
</defs>
</svg>
